• Есть некие результаты.
    1. перенаправляю поток в файл таким образом.
    #ffmpeg -i rtmp://videostream.loc/live/stream1 -vcodec copy /var/www/tube/stream.mp4

    FFmpeg version 0.6.5, Copyright (c) 2000-2010 the FFmpeg developers
    built on Jan 29 2012 23:55:02 with gcc 4.1.2 20080704 (Red Hat 4.1.2-51)
    configuration: --prefix=/usr --libdir=/usr/lib64 --shlibdir=/usr/lib64 --mandir=/usr/share/man --incdir=/usr/include --disable-avisynth --extra-cflags='-O2 -g -pipe -Wall -Wp,-D_FORTIFY_SOURCE=2 -fexceptions -fstack-protector --param=ssp-buffer-size=4 -m64 -mtune=generic -fPIC' --enable-avfilter --enable-avfilter-lavf --enable-libdirac --enable-libfaac --enable-libfaad --enable-libfaadbin --enable-libgsm --enable-libmp3lame --enable-libopencore-amrnb --enable-libopencore-amrwb --enable-libx264 --enable-gpl --enable-nonfree --enable-postproc --enable-pthreads --enable-shared --enable-swscale --enable-vdpau --enable-version3 --enable-x11grab
    libavutil 50.15. 1 / 50.15. 1
    libavcodec 52.72. 2 / 52.72. 2
    libavformat 52.64. 2 / 52.64. 2
    libavdevice 52. 2. 0 / 52. 2. 0
    libavfilter 1.19. 0 / 1.19. 0
    libswscale 0.11. 0 / 0.11. 0
    libpostproc 51. 2. 0 / 51. 2. 0
    [flv @ 0xce88b0]Estimating duration from bitrate, this may be inaccurate
    Input #0, flv, from 'rtmp://videostream.loc/live/stream1':
    Duration: N/A, start: 171.682000, bitrate: N/A
    Stream #0.0: Video: h264, yuv420p, 1280x720 [PAR 1:1 DAR 16:9], 25 tbr, 1k tbn, 50 tbc
    Stream #0.1: Audio: aac, 44100 Hz, stereo, s16
    Output #0, mp4, to '/var/www/tube/stream.mp4':
    Metadata:
    encoder : Lavf52.64.2
    Stream #0.0: Video: libx264, yuv420p, 1280x720 [PAR 1:1 DAR 16:9], q=2-31, 1k tbn, 1k tbc
    Stream #0.1: Audio: libfaac, 44100 Hz, stereo, s16, 64 kb/s
    Stream mapping:
    Stream #0.0 -> #0.0
    Stream #0.1 -> #0.1
    Press [q] to stop encoding
    frame= 4276 fps= 26 q=-1.0 Lsize= 52169kB time=172.55 bitrate=2476.8kbits/s
    video:50702kB audio:1348kB global headers:0kB muxing overhead 0.227800%
    2. тупо вставляю потом этот файл с код страницы с video.js плеером и файл вообще замечательно проигрывается.

    теперь остается вопрос, как это сделать не через файл, а через поток ffserver. этого я пока не могу сделать(((

Replies (0)