← All posts tagged wm

fuze
PDA wm kpk три или четыре дня мучился с подключением кпк к инету который расшаривал через wi-fi , оказалось все проблемы решаются легко и просто — cделал ХР и даже без настроек подключился и вышел в инет с кпк. Одно плохо винмобайл теперь весь английский
fuze
DropBox wm pocket нашел для винмобайла клиент дропбокса 4pda.ru обрадывался — скачал а он оказался тока для вм6 и выше- неужели так тяжело было и под вм5 сделать :-(
fuze
wm pocket ненавижу винмобайл ]:-> с утра кпк невключился ,передёрнул его — теперь половина прог не работаю и анимированные темы ,последние вылечил переустановкой флеша.А первые невидят сранный .НЕЕЕЕТ
fuze
PDA wm pocket отличный скин старая бумага под алреадер profismart.ru
profismart.ru переносим по пути my documents/ alreader2,затем заходим в читалку меню/профиль/загрузить и пользуемся скины меняются меню/профиль/отступы и фон
fuze
PDA wm попробывал оперу мини 5 для винмобай -неплохая штучка — и главное нативная и под тач заточена неплохо ,тока вот на мой кпк она на весь экран а кнопки свернуть нет.
fuze
PDA wm поставил swype — клава росчерком:тоесть водишь по клаве по буквам и оон типа т9 вставляет слова.Пока непонятно нравится или нет— непривычно— чувствуеш себя немного гарри поттером , который палочкой пишет слова произнося заклинания
fuze
PDA wm поставил CorePlayer 1.3.6 Build 7427 — крутая штука даже ютуб держит -можно выбрать качать в низком например 3gp качестве
fuze
новости PDA wm Microsoft показала новую версию Windows Mobile
lenta.ru
Корпорация Microsoft продемонстрировала новую версию мобильной операционной системы Windows Mobile. Презентация состоялась 15 февраля на проходящей в Барселоне конференции Mobile World Congress. Операционная система, получившая название Windows Phone 7 Series, выйдет в конце 2010 года.
fuze
новости PDA КПК wm
Во-первых, новая версия "мобильной винды" не будет называться Windows Mobile. Это вполне логично, согласитесь фраза "Windows Phone with Windows Mobile 7" звучит как-то не особенно приятно. Другое дело, если назвать новую версию ОС просто "Seven", ведь "Windows Phone Seven" гораздо благозвучнее. Во-вторых, ожидается появление двух версий Seven. Первая из них, Business Edition, будет предназначена для делового использования, а вторая Media Edition -для различных мультимедийных применений. Соответственно, в деловой редакции системы основной упор будет сделан на средства работы с документами (совместный доступ, правка и т.д.), а в Media Edition, как несложно догадаться, на сервисы связанные с музыкой, видео, играми, социальными сетями и т.д. В-третьих, даже если Seven будет представлен на MWC, то мы увидим не полноценный продукт, а, скорее всего, это будет демонстрация работы с HD-видео, Zune-подобный мультимедиа интерфейс и некоторые другие элементы интерфейса. С одной стороны подобный подход может показаться странным, но с другой — он вполне логичен — по слухам телефоны с Seven "на борту" появятся только в конце 2010 года, соответственно к MWC 2010 они будут еще просто не готовы.
Скорее всего, портрет типового WM7-смартфона будет включать в себя процессор Snapdragon частотой не менее 1ГГц, 3.7-дюймовый AMOLED дисплей, а необходимый объем оперативной памяти составит от 512 Мб до 1 Гб. Согласитесь, требования весьма не маленькие и плохо сочетающиеся с параметрами большинства существующих WM-смартфонов.
mforum.ru
fuze
Linux PDA wm итак мы захотели уменьшить ави файл при достаточном качестве для кпк?
зачем особо мудрить с пупер супер прогами когда это всё очень просто
идём ffmpeg.org и читаем-там всё описано очень подробно
для примера выполняем $ ffmpeg -i "/media/sab/home/sabayonuser/Видео/Футурама — Futurama/Season 1/S1E2 1ACV02 The Series Has Landed.avi"
покажется инфа о файле
Seems stream 0 codec frame rate differs from container frame rate: 30000.00 (30000/1) -> 25.00 (25/1)
Input #0, avi, from '/media/sab/home/sabayonuser/Видео/Футурама — Futurama/Season 1/S1E2 1ACV02 The Series Has Landed.avi':
Duration: 00:21:32.20, start: 0.000000, bitrate: 1174 kb/s
Stream #0.0: Video: mpeg4, yuv420p, 576x432 [PAR 1:1 DAR 4:3], 25.00 tb(r)
Stream #0.1: Audio: mp3, 44100 Hz, mono, 56 kb/s
видем что bitrate: 1174 kb/s — его то и надо уменьшить например до 500
(по умолчанию 200 но качество поганое-если 500 неустраивает можно больше но файл потолстеет)
далее чуть подгоняем под экран и немного уменьшаем качество звука(или как я сделал-оставил прежнее — учтите по дефолту 64 )
если хотите можно другой кодек взять-но я оставил какой есть в итоге
$ ffmpeg -i "/media/sab/home/sabayonuser/Видео/Футурама — Futurama/Season 1/S1E2 1ACV02 The Series Has Landed.avi" -b 500k -s qvga -ab 56k futurama.avi
где
bitrate: 500 kb/s
размер qvga
звук 56k
это всё можно видеть в логе :
Output #0, avi, to 'output.avi':
Stream #0.0: Video: mpeg4, yuv420p, 320x240 [PAR 1:1 DAR 4:3], q=2-31, 500 kb/s, 25.00 tb(c)
Stream #0.1: Audio: mp2, 44100 Hz, mono, 56 kb/s

получили из 180 метров тока 87 метров хорошего качества видео для кпк